Marcelo D2 – Canta Bezerra da Silva[Eac Flac Cue](TntVillage)

Marcelo D2 – Canta Bezerra da Silva[Eac Flac Cue](TntVillage)

Artist: Marcelo D2
Title Of Album: Canta Bezerra Da Silva
Etichetta: EMI Music
Pubblicazione: 2010
Genre: MPB
Style: Samba Breque
Source: CD
Playing Time: 49.55
Total Size: 358,82 MB
Quality: FLAC+Cue+Log+Info+Cover
Bitrate: Lossless

1. Se Não Fosse o Samba [04.09] 2. Partideiro Sem Nó na Garganta [03.42] 3. A Semente [03.33] 4. A Necessidade [03.08] 5. Bicho Feroz [03.45] 6. Quem Usa Antena É Televisão [03.23] 7. Meu Bom Juiz [04.04] 8. Malandro Rife [03.12] 9. Pega Eu (o Supra Sumo da Honestidade) [03.30] 10. Malandragem Dá um Tempo [03.38] 11. Minha Sogra Parece Sapatão [03.00] 12. Na Aba [02.57] 13. Saudação as Favelas [03.38] 14. Pai Veio [03.02] 15. Caro Amigo Bezerra [01.07]

Esce per Emi Music “Marcelo D2 canta Bezerra da Silva”, il nuovo disco del rapper carioca dedicato all’opera e alla memoria del popolare sambista, scomparso nel 2005 all’età di 78 anni. La copertina del cd, con D2 sulla croce, è un ulteriore tributo a Da Silva, che si era fatto raffigurare in modo analogo per il suo “Eu não sou santo”, del 1990. Nel nuovo album, prodotto da Leandro Sapucahy, l’artista di riferimento dell’hip hop brasiliano e membro fondatore dei disciolti Planet Hemp ha voluto rileggere a modo suo alcuni dei maggiori successi di Bezerra. Tra essi, “Defunto caguete” del 1984 (samba scritto da Adelzonilton, Franco Teixeira e Ubirajara Lúcio), “Candidato caô caô” del 1988 (di Pedro Butina e Walter Meninão), “Overdose de cocada” del 1993 (Dinho e Ivan Mendonça) e la celeberrima “Malandro é malandro, mané é mané” del 1980 (Neguinho da Beija-Flor), recentemente registrata anche da Diogo Nogueira.
Buon ascolto

Exact Audio Copy V1.0 beta 3 from 29. August 2011

EAC extraction logfile from 5. April 2012, 18:22

Marcelo D2 / Marcelo D2 canta Bezerra da Silva

Used drive : HL-DT-STDVDRAM GSA-T40N Adapter: 0 ID: 0

Read mode : Secure
Utilize accurate stream : Yes
Defeat audio cache : Yes
Make use of C2 pointers : No

Read offset correction : 667
Overread into Lead-In and Lead-Out : No
Fill up missing offset samples with silence : Yes
Delete leading and trailing silent blocks : No
Null samples used in CRC calculations : Yes
Used interface : Native Win32 interface for Win NT & 2000
Gap handling : Appended to previous track

Used output format : User Defined Encoder
Selected bitrate : 896 kBit/s
Quality : High
Add ID3 tag : No
Command line compressor : C:Program FilesExact Audio CopyFLACFLAC.EXE
Additional command line options : -8 -V -T “ARTIST=%artist%” -T “TITLE=%title%” -T “ALBUM=%albumtitle%” -T “DATE=%year%” -T “TRACKNUMBER=%tracknr%” -T “GENRE=%genre%” -T “COMMENT=%comment%” -T “BAND=%albuminterpret%” -T “ALBUMARTIST=%albuminterpret%” -T “COMPOSER=%composer%” %haslyrics%–tag-from-file=LYRICS=”%lyricsfile%”%haslyrics% -T “DISCNUMBER=%cdnumber%” -T “TOTALDISCS=%totalcds%” -T “TOTALTRACKS=%numtracks%” %hascover%–picture=”%coverfile%”%hascover% %source% -o %dest%

TOC of the extracted CD

Track | Start | Length | Start sector | End sector
———————————————————
1 | 0:00.00 | 4:09.15 | 0 | 18689
2 | 4:09.15 | 3:42.45 | 18690 | 35384
3 | 7:51.60 | 3:33.23 | 35385 | 51382
4 | 11:25.08 | 3:08.35 | 51383 | 65517
5 | 14:33.43 | 3:45.25 | 65518 | 82417
6 | 18:18.68 | 3:23.55 | 82418 | 97697
7 | 21:42.48 | 4:04.72 | 97698 | 116069
8 | 25:47.45 | 3:12.40 | 116070 | 130509
9 | 29:00.10 | 3:30.28 | 130510 | 146287
10 | 32:30.38 | 3:38.29 | 146288 | 162666
11 | 36:08.67 | 3:00.69 | 162667 | 176235
12 | 39:09.61 | 2:57.73 | 176236 | 189583
13 | 42:07.59 | 3:38.64 | 189584 | 205997
14 | 45:46.48 | 3:02.05 | 205998 | 219652
15 | 48:48.53 | 1:07.19 | 219653 | 224696

Track 1

Filename F:MY EAC[.FLAC]Marcelo D2 – Canta Bezerra da Silva(1) Se Não Fosse o Samba – Marcelo D2.flac

Pre-gap length 0:00:02.00

Peak level 97.5 %
Extraction speed 1.9 X
Track quality 100.0 %
Test CRC F4721EF2
Copy CRC F4721EF2
Accurately ripped (confidence 2) [5BA9B412] (AR v2)
Copy OK

Track 2

Filename F:MY EAC[.FLAC]Marcelo D2 – Canta Bezerra da Silva(2) Partideiro Sem Nó na Garganta – Marcelo D2.flac

Peak level 97.5 %
Extraction speed 2.4 X
Track quality 100.0 %
Test CRC 5598CEE2
Copy CRC 5598CEE2
Accurately ripped (confidence 2) [2D330E11] (AR v2)
Copy OK

Track 3

Filename F:MY EAC[.FLAC]Marcelo D2 – Canta Bezerra da Silva(3) A Semente – Marcelo D2.flac

Peak level 97.5 %
Extraction speed 2.5 X
Track quality 100.0 %
Test CRC CFA52D23
Copy CRC CFA52D23
Accurately ripped (confidence 2) [D3ED82EC] (AR v2)
Copy OK

Track 4

Filename F:MY EAC[.FLAC]Marcelo D2 – Canta Bezerra da Silva(4) A Necessidade – Marcelo D2.flac

Peak level 97.6 %
Extraction speed 2.6 X
Track quality 100.0 %
Test CRC 29FE6BB3
Copy CRC 29FE6BB3
Accurately ripped (confidence 2) [7E925D45] (AR v2)
Copy OK

Track 5

Filename F:MY EAC[.FLAC]Marcelo D2 – Canta Bezerra da Silva(5) Bicho Feroz – Marcelo D2.flac

Peak level 97.5 %
Extraction speed 2.8 X
Track quality 100.0 %
Test CRC 5DC31552
Copy CRC 5DC31552
Accurately ripped (confidence 2) [65BAD804] (AR v2)
Copy OK

Track 6

Filename F:MY EAC[.FLAC]Marcelo D2 – Canta Bezerra da Silva(6) Quem Usa Antena É Televisão – Marcelo D2.flac

Peak level 97.5 %
Extraction speed 2.9 X
Track quality 100.0 %
Test CRC BEC09592
Copy CRC BEC09592
Accurately ripped (confidence 2) [7E640065] (AR v2)
Copy OK

Track 7

Filename F:MY EAC[.FLAC]Marcelo D2 – Canta Bezerra da Silva(7) Meu Bom Juiz – Marcelo D2.flac

Peak level 97.5 %
Extraction speed 3.0 X
Track quality 100.0 %
Test CRC 2F717EA5
Copy CRC 2F717EA5
Accurately ripped (confidence 2) [F1D7EC6A] (AR v2)
Copy OK

Track 8

Filename F:MY EAC[.FLAC]Marcelo D2 – Canta Bezerra da Silva(8) Malandro Rife – Marcelo D2.flac

Peak level 97.5 %
Extraction speed 2.7 X
Track quality 99.9 %
Test CRC 49E10B01
Copy CRC 49E10B01
Accurately ripped (confidence 2) [0B149133] (AR v2)
Copy OK

Track 9

Filename F:MY EAC[.FLAC]Marcelo D2 – Canta Bezerra da Silva(9) Pega Eu (o Supra Sumo da Honestidade) – Marcelo D2.flac

Peak level 97.5 %
Extraction speed 3.2 X
Track quality 100.0 %
Test CRC 72C6700A
Copy CRC 72C6700A
Accurately ripped (confidence 2) [ADF157E6] (AR v2)
Copy OK

Track 10

Filename F:MY EAC[.FLAC]Marcelo D2 – Canta Bezerra da Silva(10) Malandragem Dá um Tempo – Marcelo D2.flac

Peak level 97.5 %
Extraction speed 2.5 X
Track quality 100.0 %
Test CRC 8A6AE732
Copy CRC 8A6AE732
Accurately ripped (confidence 2) [531BE881] (AR v2)
Copy OK

Track 11

Filename F:MY EAC[.FLAC]Marcelo D2 – Canta Bezerra da Silva(11) Minha Sogra Parece Sapatão – Marcelo D2.flac

Peak level 97.5 %
Extraction speed 2.3 X
Track quality 99.9 %
Test CRC F7D5FDB8
Copy CRC F7D5FDB8
Accurately ripped (confidence 2) [37F3FB40] (AR v2)
Copy OK

Track 12

Filename F:MY EAC[.FLAC]Marcelo D2 – Canta Bezerra da Silva(12) Na Aba – Marcelo D2.flac

Peak level 97.5 %
Extraction speed 2.5 X
Track quality 99.9 %
Test CRC EDFBCB18
Copy CRC EDFBCB18
Accurately ripped (confidence 2) [5FE4BCC8] (AR v2)
Copy OK

Track 13

Filename F:MY EAC[.FLAC]Marcelo D2 – Canta Bezerra da Silva(13) Saudação as Favelas – Marcelo D2.flac

Peak level 97.5 %
Extraction speed 3.5 X
Track quality 100.0 %
Test CRC 12C310F0
Copy CRC 12C310F0
Accurately ripped (confidence 2) [1FF836C9] (AR v2)
Copy OK

Track 14

Filename F:MY EAC[.FLAC]Marcelo D2 – Canta Bezerra da Silva(14) Pai Veio – Marcelo D2.flac

Peak level 97.5 %
Extraction speed 3.5 X
Track quality 100.0 %
Test CRC AF80E7E2
Copy CRC AF80E7E2
Accurately ripped (confidence 2) [7D7765C1] (AR v2)
Copy OK

Track 15

Filename F:MY EAC[.FLAC]Marcelo D2 – Canta Bezerra da Silva(15) Caro Amigo Bezerra – Marcelo D2.flac

Pre-gap length 0:00:14.56

Peak level 57.3 %
Extraction speed 2.8 X
Track quality 100.0 %
Test CRC C1D7E070
Copy CRC C1D7E070
Accurately ripped (confidence 2) [CE50C3D5] (AR v2)
Copy OK

All tracks accurately ripped

No errors occurred

End of status report

==== Log checksum CA9888C94B98798ABBD7510E202F246A5E9A3008465CB226F01B0D366534E50D ====

 

(1) Se Não Fosse o Samba – Marcelo D2.flac
29.59 MB

 

(10) Malandragem Dá um Tempo – Marcelo D2.flac
27.2 MB

 

(11) Minha Sogra Parece Sapatão – Marcelo D2.flac
21.81 MB

 

(12) Na Aba – Marcelo D2.flac
22.1 MB

 

(13) Saudação as Favelas – Marcelo D2.flac
26.21 MB

 

(14) Pai Veio – Marcelo D2.flac
20.26 MB

 

(15) Caro Amigo Bezerra – Marcelo D2.flac
6.58 MB

 

(2) Partideiro Sem Nó na Garganta – Marcelo D2.flac
26.61 MB

 

(3) A Semente – Marcelo D2.flac
25.59 MB

 

(4) A Necessidade – Marcelo D2.flac
22.63 MB

 

(5) Bicho Feroz – Marcelo D2.flac
26.76 MB

 

(6) Quem Usa Antena É Televisão – Marcelo D2.flac
25.25 MB

 

(7) Meu Bom Juiz – Marcelo D2.flac
29.52 MB

 

(8) Malandro Rife – Marcelo D2.flac
22.96 MB

 

(9) Pega Eu (o Supra Sumo da Honestidade) – Marcelo D2.flac
25.73 MB

 

00._%MarceloD2%CantaBezarradaSilva%.nfo
2.54 KB

 

folder.jpg
84.33 KB

 

Marcelo D2 – Marcelo D2 canta Bezerra da Silva.log
15.19 KB

 

Marcelo D2 – Marcelo D2 canta Bezerra da Silva.m3u8
1.31 KB

 

Marcelo D2 canta Bezerra da Silva.cue
2.44 KB


Recommended posts :

Kings of Convenience – Declaration of Dependence [mp3-160-2009]
Crossfaith – Xeno (2015)
Jimmy Cliff – Anthology 2 Disk Set
Tamar Braxton – Calling All Lovers (2015) 320 KBPS
Jazz > Rock # DrBN”>Steely Dan: Discography (1972-2003) Remasters & Donald Fagen: Discography (1982-2012) & Walter Becker: Discography (1994-2008) V0 > Jazz > Rock # DrBN
The Waterboys – Best 1983 – 2011 (By Jamal The Moroccan)
Metallica – Garage Inc. 2CD (1998) [320] vtwin88cube
The Beatles – The Beatles (1968) 320kbps / The White Album
The Growlers – Gilded Pleasures {2013-Album}
Junkie XL – Deadpool [2016] [Soundtrack] [CDRip] MP3 [320 kbps]-TX

Click here for return to main category

Click here for return to homepage

Leave a Reply

Your email address will not be published. Required fields are marked *

You may use these HTML tags and attributes: <a href="" title=""> <abbr title=""> <acronym title=""> <b> <blockquote cite=""> <cite> <code> <del datetime=""> <em> <i> <q cite=""> <strike> <strong>